osu file format v14

[General]
AudioFilename: Orarion.mp3
AudioLeadIn: 1500
PreviewTime: 60638
Countdown: 0
SampleSet: Soft
StackLeniency: 0.7
Mode: 0
LetterboxInBreaks: 0
WidescreenStoryboard: 0

[Editor]
DistanceSpacing: 1.1
BeatDivisor: 4
GridSize: 4
TimelineZoom: 1.200001

[Metadata]
Title:Orarion
TitleUnicode:オラリオン
Artist:yanaginagi
ArtistUnicode:やなぎなぎ
Creator:Gaia
Version:Easy
Source:終わりのセラフ 名古屋決戦編
Tags:Rizia Kawaiwkyik qoot8123 owari no Seraph of the end battle in nagoya kessen hen ending tv size Gazelle
BeatmapID:809928
BeatmapSetID:368884

[Difficulty]
HPDrainRate:2
CircleSize:3
OverallDifficulty:2
ApproachRate:3
SliderMultiplier:0.9
SliderTickRate:1

[Events]
//Background and Video events
0,0,"shinoa.jpg",0,0
//Break Periods
//Storyboard Layer 0 (Background)
//Storyboard Layer 1 (Fail)
//Storyboard Layer 2 (Pass)
//Storyboard Layer 3 (Foreground)
//Storyboard Sound Samples

[TimingPoints]
2580,555.555555555556,4,2,3,40,1,0
11862,402.684563758389,4,2,2,60,1,0
12268,402.684563758389,4,2,2,70,1,0
23543,-100,4,2,25,70,0,0
23945,-100,4,2,26,70,0,0
24147,-100,4,2,20,70,0,0
24549,-100,4,2,21,70,0,0
24751,-100,4,2,2,70,0,0
25153,-100,4,2,20,70,0,0
26764,-100,4,2,21,75,0,0
28375,-100,4,2,22,80,0,0
29986,-100,4,2,23,90,0,0
30590,-100,4,2,24,90,0,0
30791,-100,4,2,2,60,0,0
31596,-100,4,2,2,60,0,0
41261,416.666666666667,4,2,2,60,1,0
42094,461.538461538462,4,2,2,60,1,0
42324,444.444444444444,4,2,2,60,1,0
42546,461.538461538462,4,2,2,60,1,0
43007,521.739130434783,4,2,2,50,1,0
43528,545.454545454546,4,2,2,50,1,0
43800,1000,4,2,2,35,1,0
44300,810.810810810811,4,2,2,30,1,0
45110,555.555555555556,4,2,3,60,1,0
57887,571.428571428571,4,2,3,60,1,0
58458,500,4,2,3,60,1,0
58958,521.739130434783,4,2,2,60,1,0
59479,428.571428571429,4,2,3,60,1,0
60336,402.684563758389,4,2,2,80,1,0
87919,-100,4,2,2,50,0,0
88020,-100,4,2,2,30,0,0
90738,-100,4,2,1,5,0,0

[Colours]
Combo1 : 17,177,255
Combo2 : 180,44,231

[HitObjects]
168,96,2580,6,0,B|144:184|144:184|168:288,1,180,2|2,0:0|0:0,0:0:0:0:
260,320,4246,2,0,L|352:300,1,90,2|2,0:0|0:0,0:0:0:0:
416,220,5357,2,0,B|411:170|367:134|315:138|281:167,1,180,2|0,0:0|0:0,0:0:0:0:
192,228,7024,6,0,B|181:182|180:136,1,90,2|2,0:0|0:0,0:0:0:0:
84,92,8135,2,0,B|73:138|72:184,1,90,2|2,0:0|0:0,0:0:0:0:
112,272,9246,2,0,B|184:300|244:236|244:236|308:260|404:220|404:220|352:256|352:312,1,424,2|0,0:0|0:0,0:0:0:0:
452,308,12268,6,0,B|496:278|509:222|488:177,2,135,6|0|0,0:0|0:0|0:0,0:0:0:0:
364,356,13878,2,0,L|168:336,1,180,6|0,2:2|0:0,0:0:0:0:
112,272,15086,1,0,0:0:0:0:
160,188,15489,6,0,B|156:84|156:84|132:44,2,135,6|2|8,0:0|0:0|0:0,0:0:0:0:
236,248,17100,2,0,B|286:243|332:228,1,90,6|0,0:0|0:0,0:0:0:0:
352,136,17905,2,0,B|302:131|256:116,1,90,0|12,0:0|0:0,0:0:0:0:
184,60,18710,6,0,B|113:73|47:96,2,135,6|2|8,0:0|0:0|0:0,0:0:0:0:
276,24,20321,2,0,B|341:46|407:58,2,135,2|2|8,0:0|0:0|0:0,0:0:0:0:
200,84,21932,6,0,B|192:119|196:154|208:185,1,90,2|8,0:0|0:0,0:0:0:0:
296,212,22737,2,0,B|304:247|300:282|288:313,1,90,2|8,0:0|0:0,0:0:0:0:
208,352,23543,2,0,L|72:336,1,135,2|2,3:2|3:2,0:0:0:0:
24,252,24549,2,0,B|19:228|20:204,1,45,2|8,3:2|0:0,0:0:0:0:
68,120,25153,6,0,L|164:128,1,90,6|8,3:2|3:2,0:0:0:0:
220,48,25959,2,0,L|282:121,1,90,0|8,3:2|3:2,0:0:0:0:
372,92,26764,2,0,L|364:188,1,90,2|8,3:2|3:2,0:0:0:0:
452,228,27570,2,0,L|378:290,1,90,0|8,3:0|3:2,0:0:0:0:
348,380,28375,6,0,L|252:372,1,90,2|8,3:2|3:2,0:0:0:0:
180,312,29180,1,0,3:2:0:0:
88,344,29583,1,8,3:2:0:0:
12,280,29986,2,0,B|0:184|0:184|20:124,2,135,6|6|8,3:2|3:2|0:0,0:0:0:0:
104,316,31596,6,0,L|248:288,2,135,6|2|8,0:0|0:0|0:0,0:0:0:0:
124,220,33207,2,0,B|224:204|224:204|264:180,2,135,2|2|8,0:0|0:0|0:0,0:0:0:0:
68,140,34818,6,0,B|22:168|11:228|40:271,2,135,2|2|8,0:0|0:0|0:0,0:0:0:0:
132,64,36429,2,0,B|256:104|256:104|404:88,1,270,2|8,0:0|0:0,0:0:0:0:
476,144,38039,6,0,B|508:191|510:248|488:295,2,135,6|2|8,0:0|0:0|0:0,0:0:0:0:
388,188,39650,2,0,B|292:204|292:204|272:248,2,135,6|6|8,0:0|0:0|0:0,0:0:0:0:
392,280,41261,6,0,B|168:260|168:260|144:212,1,277.5,6|8,0:0|0:0,0:0:0:0:
56,176,43007,6,0,B|40:268|40:268|64:320,1,137,2|8,0:0|2:3,0:0:0:0:
144,356,44300,6,0,L|216:348,1,60,8|8,0:3|0:3,0:0:0:0:
244,324,45110,6,0,B|290:355|350:348|390:309|400:262,1,180,6|2,0:0|0:0,0:0:0:0:
472,220,46776,2,0,L|460:120,1,90,2|2,0:0|0:0,0:0:0:0:
384,72,47887,2,0,B|256:64|256:64|196:100,1,180,2|0,0:0|0:0,0:0:0:0:
112,80,49554,6,0,L|124:272,1,180,6|2,0:0|0:0,0:0:0:0:
216,292,51221,1,2,3:2:0:0:
200,196,51776,2,0,B|163:156|104:148|56:174|33:215,1,180,2|0,3:2|0:0,0:0:0:0:
12,296,53443,1,0,3:0:0:0:
88,360,53998,6,0,B|220:336|220:336|272:348,1,180,6|0,0:0|0:0,0:0:0:0:
336,280,55665,2,0,B|365:295|383:322|388:352,2,90,2|0|0,0:0|0:0|0:0,0:0:0:0:
280,200,57332,2,0,B|272:167|276:135|288:107,1,90,2|2,3:2|0:0,0:0:0:0:
372,48,58458,6,0,B|244:80|244:80|180:72,1,184,2|0,2:2|3:0,0:0:0:0:
28,216,60336,1,8,0:0:0:0:
408,320,61946,6,0,L|308:312,1,90,6|8,0:0|0:0,0:0:0:0:
232,260,62752,2,0,L|128:280,1,90,0|8,0:0|0:0,0:0:0:0:
56,232,63557,2,0,B|40:202|35:170|40:139,1,90,2|8,0:0|0:0,0:0:0:0:
128,96,64362,2,0,B|143:126|148:159|144:189,1,90,2|8,0:0|0:0,0:0:0:0:
136,284,65168,6,0,B|149:331|172:372,2,90,2|8|0,0:0|0:0|0:0,0:0:0:0:
188,200,66376,1,8,0:0:0:0:
268,260,66778,2,0,B|368:264|368:264|408:248,2,135,2|2|8,0:0|0:0|0:0,0:0:0:0:
204,184,68389,5,6,0:0:0:0:
276,116,68792,2,0,B|310:107|344:118|368:140,2,90,8|2|8,0:0|0:0|0:0,0:0:0:0:
180,88,70000,2,0,B|105:103|29:117,2,135,2|2|8,0:0|0:0|0:0,0:0:0:0:
260,144,71611,6,0,B|273:175|275:207|268:237,1,90,6|8,0:0|0:0,0:0:0:0:
232,324,72416,2,0,B|280:336|280:336|368:320,2,135,2|6|8,0:0|0:0|0:0,0:0:0:0:
168,248,74027,2,0,B|132:255|102:272|79:297,1,90,8|8,0:0|0:0,0:0:0:0:
12,224,74832,6,0,B|-1:191|2:157|16:128,1,90,6|8,0:0|0:0,0:0:0:0:
91,73,75638,2,0,L|187:89,1,90,2|8,0:0|0:0,0:0:0:0:
196,184,76443,2,0,L|284:169,1,90,2|8,0:0|0:0,0:0:0:0:
360,104,77248,2,0,B|399:105|432:128|448:160,1,90,2|8,0:0|0:0,0:0:0:0:
496,224,78054,6,0,L|488:324,2,90,2|8|2,0:0|0:0|0:0,0:0:0:0:
424,156,79262,1,8,0:0:0:0:
344,216,79664,2,0,B|360:316|360:316|392:352,2,135,2|2|8,0:0|0:0|0:0,0:0:0:0:
276,144,81275,5,6,0:0:0:0:
180,116,81678,2,0,B|126:107|75:143|63:198|83:242,1,180,8|8,0:0|0:0,0:0:0:0:
116,320,82886,2,0,B|184:312|184:312|216:320,1,90,6|8,0:0|0:0,0:0:0:0:
252,232,83691,2,0,B|316:240|316:240|344:232,1,90,2|8,0:0|0:0,0:0:0:0:
420,172,84497,6,0,L|400:76,1,90,6|8,0:0|0:0,0:0:0:0:
316,36,85302,2,0,B|286:35|259:43|235:57,2,67.5,8|8|12,0:3|0:3|0:0,0:0:0:0:
200,252,87919,5,4,0:0:0:0:
256,192,88121,12,0,90738,0:0:0:0:
